Siva (CVA)

Members
  • Content count

    65
  • Joined

  • Last visited

Community Reputation

14 Good

About Siva (CVA)

  • Rank
    Advanced Member
  • Birthday

Recent Profile Visitors

1513 profile views
  1. Thadam (2019) - Tamil - HDRip - 720P - HEVC - X265 - AAC - ESubs - 400MB - [DSM] http://up.media1fire.com/cb31x93su8ps https://www.file-up.org/i5igc4iekeci https://www.up-4ever.org/kyapzyyha4lz https://userupload.net/0qcf5jmp7kvu https://uploadbyte.com/znzyu2e0sem5 https://uploadbuzz.org/0vpf7zeatsea https://userscloud.com/yav1eob5594y
  2. Silukkuvarpatti Singam (2018) Tamil - DD5.1 (448Kbps) Audio Only Rip with Any Silukkuvarpatti Singam (2018) HD Rip (Tentkotta) Media Info Audio ID : 1 Format : AC-3 Format/Info : Audio Coding 3 Commercial name : Dolby Digital Codec ID : A_AC3 Duration : 2 h 7 min Bit rate mode : Constant Bit rate : 448 kb/s Channel(s) : 6 channels Channel layout : L R C LFE Ls Rs Sampling rate : 48.0 kHz Frame rate : 31.250 FPS (1536 SPF) Bit depth : 16 bits Compression mode : Lossy Stream size : 408 MiB (100%) Language : Tamil Service kind : Complete Main Default : Yes Forced : No Download - Silukkuvarpatti Singam (2018) Tamil - DD5.1 (448Kbps ) - Audio Only
  3. Thugs of Hindostan (2018) [Tamil+Telugu+Hindi] Original DDP 5.1 (640Kbps) Audio only 1. Thugs of Hindostan (2018)[Tamil DDP 5.1 (640Kbps)] Audio ID : 1 Format : E-AC-3 Format/Info : Enhanced AC-3 Commercial name : Dolby Digital Plus Codec ID : A_EAC3 Duration : 2 h 44 min Bit rate mode : Constant Bit rate : 640 kb/s Channel(s) : 6 channels Channel layout : L R C LFE Ls Rs Sampling rate : 48.0 kHz Frame rate : 31.250 FPS (1536 SPF) Compression mode : Lossy Stream size : 751 MiB (100%) Title : Tamil Language : Tamil Service kind : Complete Main Default : No Forced : No Download: Thugs of Hindostan (2018)[Tamil DDP 5.1 (640Kbps)] 2. Thugs of Hindostan (2018) [Telugu DDP 5.1 (640KBPS)] Audio ID : 1 Format : E-AC-3 Format/Info : Enhanced AC-3 Commercial name : Dolby Digital Plus Codec ID : A_EAC3 Duration : 2 h 44 min Bit rate mode : Constant Bit rate : 640 kb/s Channel(s) : 6 channels Channel layout : L R C LFE Ls Rs Sampling rate : 48.0 kHz Frame rate : 31.250 FPS (1536 SPF) Compression mode : Lossy Stream size : 751 MiB (100%) Language : Telugu Service kind : Complete Main Default : No Forced : No Download: Thugs of Hindostan (2018) [Telugu DDP 5.1 (640KBPS)] 3. Thugs of Hindostan (2018)[Hindi - DDP 5.1 (640Kbps)] Audio ID : 1 Format : E-AC-3 Format/Info : Enhanced AC-3 Commercial name : Dolby Digital Plus Codec ID : A_EAC3 Duration : 2 h 44 min Bit rate mode : Constant Bit rate : 640 kb/s Channel(s) : 6 channels Channel layout : L R C LFE Ls Rs Sampling rate : 48.0 kHz Frame rate : 31.250 FPS (1536 SPF) Compression mode : Lossy Stream size : 751 MiB (100%) Title : Hindi Language : Hindi Service kind : Complete Main Default : No Forced : No Download: Thugs of Hindostan (2018)[Hindi - DDP 5.1 (640Kbps)] Rip with any Thugs of Hindostan (2018) HD Rip
  4. Venom (2018) - Original Auds [Tamil + Telugu + Hindi] DDP 5.1 (640kbps)] Audio only Rip with any venom BDRips 1. Venom (2018) - Original Auds [Tamil DDP 5.1 (640kbps)] Audio ID : 1 Format : AC-3 Format/Info : Audio Coding 3 Commercial name : Dolby Digital Codec ID : A_AC3 Duration : 1 h 52 min Bit rate mode : Constant Bit rate : 640 kb/s Channel(s) : 6 channels Channel layout : L R C LFE Ls Rs Sampling rate : 48.0 kHz Frame rate : 31.250 FPS (1536 SPF) Bit depth : 16 bits Compression mode : Lossy Stream size : 513 MiB (100%) Language : Tamil Service kind : Complete Main Default : Yes Forced : No Download - Venom (2018) - Original Auds [Tamil DDP 5.1 (640kbps)] 2. Venom (2018) - Original Auds [Telugu DDP 5.1 (640kbps)] Audio ID : 1 Format : AC-3 Format/Info : Audio Coding 3 Commercial name : Dolby Digital Codec ID : A_AC3 Duration : 1 h 52 min Bit rate mode : Constant Bit rate : 640 kb/s Channel(s) : 6 channels Channel layout : L R C LFE Ls Rs Sampling rate : 48.0 kHz Frame rate : 31.250 FPS (1536 SPF) Bit depth : 16 bits Compression mode : Lossy Stream size : 513 MiB (100%) Language : Telugu Service kind : Complete Main Default : No Forced : No Download - Venom (2018) - Original Auds [Telugu DDP 5.1 (640kbps)] 3. Venom (2018) - Original Auds [Hindi DDP 5.1 (640kbps)] Audio ID : 1 Format : AC-3 Format/Info : Audio Coding 3 Commercial name : Dolby Digital Codec ID : A_AC3 Duration : 1 h 52 min Bit rate mode : Constant Bit rate : 640 kb/s Channel(s) : 6 channels Channel layout : L R C LFE Ls Rs Sampling rate : 48.0 kHz Frame rate : 31.250 FPS (1536 SPF) Bit depth : 16 bits Compression mode : Lossy Stream size : 513 MiB (100%) Language : Hindi Service kind : Complete Main Default : No Forced : No Download - Venom (2018) - Original Auds [Hindi DDP 5.1 (640kbps)]
  5. 1. 180 - AJ MIX- BD50 - 624.0 MB - https://mega.nz/#!frYFhKzZ!ba4pCYe0VIq05G2bsV4nqaBl1KwSf8kHoyPlK8qC0Ss 2. 180 - Nee Korinal - BD50 - 1008.5 MB - https://mega.nz/#!ruYXyCJA!sXBvzqINa8Jy_OX8Skz5SjL-uP8Mh7IBQyb9ys_h1-c 3. 180 - Rules Kidiyathu - BD50 - 880.3 MB - https://mega.nz/#!urBxnCYB!B63Sg6HWl4YOhUqwCBElo6JuD5iCAj6t8B4al10ZGgY 4. 180 - Santhikkadha - BD50 - 715.2 MB - https://mega.nz/#!buRhlaSa!vFL14GibkrWU7Ev0bwPZhR_TCVtjPn6cQufqXQZK5Ag
  6. Tamil 720p Bluray Mega Collection - 56 Movies - 90GB Direct MEGA link Credits to TR Friend Movies list : Aadhavan (2009) Angadi Theru (2010) Anjaan (2014) Arinthum Ariyamalum (2005) Ayan (2009) Baahubali (2015) Baahubali 2 The Conclusion (2017) Baasha (1995) Billa (2007) Billa 2 (2012) Biriyani (2013) Boss Engira Bhaskaran (2010) Chandramukhi [2005] Cuckoo (2014) Eeram (2009) Engeyum Eppodhum (2011) Engeyum Kadhal [2011] Ethir Neechal [2013] Ghajini (2005) Jilla [2014] Kaavalan (2011) Kanthaswamy (2009) Karnan (1963) Ko (2011) Kochadaiyaan [2014] Kuruvi (2008) Linga (2005) Maatraan (2012) Madrasapattinam (2010) Mankatha (2011) Muthu (1995) Naan Ee (2012) Naan Mahaan Alla (2010) Naan Sigappu Manithan (2014) Paiyaa [2010] Pokkiri (2007) Ponnar Shankar (2011) Ra One [2011] Raavanan (2010) Raja Rani [2013] Rhythm [2000] Singam (2010) Singam 2 (2013) Sivaji (2007) Soodhu Kavvum (2013) Thaandavam [2012] Thalaivaa (2013) Thiruvilayadal (1965) Thuppakki (2012) Unnai Pol Oruvan (2009) Vaanam (2011) Velayudham (2011) Villu (2009) Vinnaithaandi Varuvaayaa [2010] Vishwaroopam [2013] Yaavarum Nalam (2009)